Tu navegador (Internet Explorer 6) está anticuado. Tiene reconocidos fallos de seguridad y es probable que no muestre todas las prestaciones de esta y otras páginas web. Descubre como actualizar tu navegador.
X
DVD

Interpol – Austin City Limits Festival 2014 (REPOST)

Zilker Park, Austin, Texas, October 11, 2014

Otras TVs

InterpolAustinCityLimitsFestival copy

Interpol
Austin City Limits Festival
Zilker Park, Austin, Texas
October 11, 2014

HD Web Stream captured by Indykid
PRO-SHOT, PAL, 16/9
Authored w/DVD Studio Pro
52.35 Minutes
Artwork included

Video: MPEG-2, 720 x 576, 16/9, 25 fps
Audio: MP2 Stereo, 48 kHz, 256 kpbs

Say Hello to the Angels
Evil
C’mere
Breaker 1
Hands Away
Anywhere
NYC
Obstacle 1
Not Even Jail
All the Rage Back Home
PDA
Slow Hands

Enjoy and share
kigonjiro.com 2014

Not For Sale – DVD Gratuito

Descarga desde/Download from FileFactory

Download the artwork from here. Aquí puedes descargar la portada.

Para estar al tanto de las novedades y avatares del blog únete a nosotros en el facebook. Join us at facebook to know the blog latest news and to share things with us.

Some screenshots:

InterpolACL_1

InterpolACL_2

InterpolACL_3

InterpolACL_4

  • q raro dice q para ver el link se requiere password, cual es el password

    harold

    15 noviembre 2014

  • Vacia la caché del navegador o cambia a otro. Sino copia la parte final del enlace lo que va detrás del # y úsalo como password

    txomin

    15 noviembre 2014

  • Seems link #4 is no longer available. Would really appreciate if that could be uploaded again.

    Nic

    11 abril 2015

  • Thank you for all of the great Interpol material. I have a question about the audio bitrate on this DVD. MediaInfo is showing that the audio bitrate is 96k/48KHz. Is that correct or is it supposed to be 256k/48KHz. Thanks in advance for taking a look at this. Below is what I got from my MediaInfo:

    InterpolAustinCityLimits2014/VIDEO_TS/VTS_01_1.VOB
    Format : MPEG-PS
    File size : 1 024 MiB
    Duration : 19mn 25s
    Overall bit rate mode : Variable
    Overall bit rate : 7 371 Kbps

    Video
    ID : 224 (0xE0)
    Format : MPEG Video
    Format version : Version 2
    Format profile : Main@Main
    Format settings, BVOP : No
    Format settings, Matrix : Default
    Format settings, GOP : N=15
    Duration : 19mn 25s
    Bit rate mode : Variable
    Bit rate : 7 128 Kbps
    Width : 720 pixels
    Height : 576 pixels
    Display aspect ratio : 16:9
    Frame rate : 25.000 fps
    Standard : PAL
    Color space : YUV
    Chroma subsampling : 4:2:0
    Bit depth : 8 bits
    Scan type : Progressive
    Compression mode : Lossy
    Bits/(Pixel*Frame) : 0.687
    Time code of first frame : 00:00:00:00
    Time code source : Group of pictures header
    GOP, Open/Closed : Open
    Stream size : 990 MiB (97%)

    Audio
    ID : 192 (0xC0)
    Format : MPEG Audio
    Format version : Version 1
    Format profile : Layer 2
    Duration : 19mn 25s
    Bit rate mode : Constant
    Bit rate : 96.0 Kbps
    Channel(s) : 2 channels
    Sampling rate : 48.0 KHz
    Compression mode : Lossy
    Stream size : 13.3 MiB (1%)

    Menu

    Wil

    3 marzo 2017

  • I can´t tell, sometimes I copy and paste the info documents from previous shows from the same venue and forget to change the info. I have Austin City Limits shows that were recorded from TV and other sourced from live webcast so maybe that´s the reason, this is a webcast capture by IndyKid so the 96 Kbps must be the right one.

    txomin

    4 marzo 2017

Deja un comentario  

nombre*

email*

página web

Enviar comentario